#TITLE:The Fire Still Burns;
#SUBTITLE:;
#ARTIST:Dragonforce;
#TITLETRANSLIT:;
#SUBTITLETRANSLIT:;
#ARTISTTRANSLIT:;
#CREDIT:;
#BANNER:The Fire Still Burns-bn.png;
#BACKGROUND:The Fire Still Burns-bg.png;
#LYRICSPATH:;
#CDTITLE:marth.png;
#MUSIC:The Fire Still Burns.mp3;
#OFFSET:-0.250;
#SAMPLESTART:142.969;
#SAMPLELENGTH:11.000;
#SELECTABLE:YES;
#BPMS:0.000=180.000,40.000=200.000,888.000=100.000,960.000=200.000;
#STOPS:;
#BGCHANGES:;
// cache tags:
#FIRSTBEAT:0.000;
#LASTBEAT:1482.500;
#SONGFILENAME:Songs/Music V.I.P ^_^/The Fire Still Burns/The Fire Still Burns.sm;
#HASMUSIC:1;
#HASBANNER:1;
#MUSICLENGTH:472.847;
// end cache tags

//---------------dance-single - Copied from Maniac----------------
#NOTES:
     dance-single:
     Copied from Maniac:
     Challenge:
     14:
     1.000,1.000,0.599,0.751,1.000,2795.000,283.000,355.000,0.000,3.000:
1001
0010
0100
1000
0001
0010
0100
1000
,
0001
0100
0010
1000
0100
0000
2200
0000
,
0000
0000
0000
0000
3300
0000
0100
0100
,
1001
0001
0100
1000
0001
0100
1000
0001
,
0100
1000
1001
0000
1010
0000
1100
0000
,
0000
0000
0000
0000
,
0100
0100
2001
0010
0100
0001
0010
0100
,
0001
0010
0100
0001
0010
0100
0001
3010
,
0200
0300
0010
0000
0100
0000
1000
0000
0100
0000
0010
0000
0001
0000
0100
0000
,
2000
3000
0010
0000
0100
0000
0001
0000
0100
0000
0100
0000
0200
0000
0000
0300
,
0001
0010
0100
1000
0001
0010
0100
1000
0001
0010
0100
1000
0001
0010
0100
1000
,
0001
1000
0001
1000
0001
1000
0001
1000
0001
0010
0100
1000
0100
0010
0001
1000
,
0020
0000
0000
0000
0000
0000
0000
0000
0000
0000
0000
0030
0020
0000
0000
0000
0000
0000
0000
0000
0000
0000
0000
0000
0230
0000
0000
0000
0000
0000
0000
0000
,
1300
0002
0000
0203
0000
2300
0000
0000
,
3100
0000
0000
0000
0200
0000
0000
0000
0000
0000
0000
0300
0200
0000
0000
0000
0000
0000
0000
0000
0000
0000
0000
0000
2300
0000
0000
0000
0000
0000
0000
0000
,
3020
0000
0000
0000
0000
0000
0000
0000
0000
0000
0000
0030
0100
0000
0100
0000
,
0020
0000
0000
0000
0000
0000
0000
0000
0000
0000
0000
0030
0020
0000
0000
0000
0000
0000
0000
0000
0000
0000
0030
0000
0020
0000
0000
0000
0030
0000
0000
0000
,
0200
0000
0000
0000
0000
0000
0000
0000
0000
0000
0000
0000
2300
0000
0000
0000
0000
0000
0000
0000
0000
0000
0000
3000
2000
0000
0000
0000
0000
0000
0000
3000
,
1000
0100
2000
0000
0000
0000
0000
0000
0000
0000
0000
0000
3100
0000
0010
0000
,
0001
0001
0100
1000
0010
0100
0010
0001
,
0200
0000
0000
0000
0000
0000
0000
0000
0000
0000
0000
0300
0200
0000
0000
0000
0000
0000
0000
0000
0000
0000
0000
0000
2300
0000
0000
0000
0000
0000
0000
0000
,
3200
0000
0000
0301
0010
0100
1000
0100
0010
0001
0010
0100
1000
0100
0010
0001
0010
0100
1000
0100
0010
0001
0000
0000
,
1000
0100
0010
0100
0010
0100
0001
0010
,
0100
0000
0100
0000
0100
0000
0100
0000
0200
0000
0000
0300
0010
0000
0001
0000
,
0100
0100
1000
0002
0000
0103
0010
0100
,
0010
0010
1000
0002
0000
0013
0010
0010
,
1000
0100
1000
0100
1000
0100
1000
0100
1000
0100
1000
0100
1000
0100
0010
0001
,
0010
0000
0100
0000
0001
0000
0010
0000
0100
0000
1000
0000
0100
0000
0010
0000
0001
0010
0100
1000
0001
0010
0100
1000
0001
0010
0100
1000
0001
0010
0100
1000
,
0002
0000
0000
0003
0000
0000
0000
0000
,
0000
0000
0000
0000
,
0000
0000
0000
0000
,
0000
0000
0000
0110
,
1010
0000
0000
0000
,
0000
0000
0000
0000
,
0000
0000
0000
0000
,
0000
0000
1010
0000
0110
2200
0000
3300
,
1010
0000
0000
0000
,
0000
0000
0000
0000
,
0000
0000
0000
0000
,
0000
0000
0000
0101
,
1010
0000
0000
0000
,
0000
0000
0000
0000
,
0000
0000
0000
0000
,
0110
0000
0110
0000
1010
2200
0000
3300
,
0010
0100
0010
0100
0010
0100
0010
1000
0010
0100
0010
0100
0010
0100
0010
0100
,
0002
0103
0010
0100
0010
0100
0002
0103
0010
0100
0010
0100
0010
0100
0001
0100
,
0002
1003
0010
0100
0010
1000
0010
0100
0010
1000
0010
0100
0010
1000
0010
0100
,
0002
0013
0100
1000
0100
0010
0002
0013
0100
1000
0100
0010
0001
0010
0100
1000
,
0002
1003
0100
1000
0010
1000
0100
1000
0010
1000
0100
1000
0010
1000
0100
1000
,
0002
1003
0100
1000
0010
1000
0002
1003
0010
1000
0100
1000
0010
1000
0100
1000
,
0200
0000
0000
0000
,
1301
0000
0100
0100
0100
0002
0000
0003
,
1100
0010
0001
0010
0100
1000
0001
0100
0001
0100
0010
1000
0010
0100
0001
1000
,
0020
1030
0001
0100
0010
1000
0020
1030
0001
0100
0001
0100
2000
0000
3200
0000
,
0320
0030
0001
1000
0010
1000
0001
0100
1000
0001
0010
0001
1000
0100
1000
0010
,
0200
0300
0000
0000
0200
0300
0000
0000
0200
0300
0000
0000
0001
0010
0100
1000
,
0002
0103
0010
0100
0010
0100
0002
0103
0010
0100
0010
0100
0002
0103
0010
0100
,
2000
3100
0010
0100
0010
0100
0002
0103
0010
0100
0010
0100
0002
0103
0010
0100
,
1000
0000
2000
0000
0000
0000
3100
0000
0010
0000
0200
0000
0000
0300
0100
0000
,
1100
0000
1100
0000
0100
0100
0100
0100
,
0200
0300
0001
0100
0001
1000
0010
1000
0001
0100
0001
1000
0010
1000
0001
0100
,
0020
1030
0100
1000
0010
1000
0200
1300
0001
0010
0100
0010
2000
0000
3200
0000
,
0320
0031
0100
1000
0100
0010
0001
0010
1000
0100
0001
0010
1000
0100
0001
0010
,
0200
0300
0000
0000
0020
0030
0000
0000
0200
0300
0000
0000
0001
0010
0100
0010
,
1000
0000
1000
0100
1000
0100
1000
0000
1000
0000
1000
0100
1000
0100
1000
0000
,
1000
0000
1000
0100
1000
0100
1000
0000
1000
0000
1000
0100
1000
0100
1000
0000
,
1000
0100
0010
0000
0100
0000
0010
0100
,
1000
0200
0000
0310
0100
1000
0100
1000
,
0011
0011
0011
0011
,
1100
1100
1100
1100
,
0110
0110
0110
0110
,
0001
1000
0001
1000
0001
0010
0100
1000
0001
0000
0010
0000
0100
0000
1000
0000
,
0101
0101
0101
0101
,
1010
1010
1010
1010
,
0200
0300
0100
0200
0300
0100
0200
0300
,
2002
0000
0000
0000
3003
0000
1100
0000
0000
1100
0000
0000
1100
0000
0000
1100
0000
0000
1100
0000
0000
1100
0000
0000
,
2020
0000
0000
0000
,
0000
0000
0000
0000
0000
3030
0100
0100
,
2200
0000
0000
3300
,
0100
0000
0100
0000
0100
0020
0000
0030
,
2020
0000
0000
3030
,
0202
0000
0000
0303
,
0010
0000
0010
0001
0000
0001
0010
0000
,
0001
0000
0000
0000
0100
0000
0000
0000
0100
0000
0010
0000
0002
0000
0000
0003
,
2200
0000
0000
3300
,
0202
0000
0000
0000
0000
0303
0100
0100
,
0220
0000
0000
0000
0000
0000
0000
0330
,
1000
0010
0100
0000
0100
0010
0000
0010
,
1001
0000
0000
0000
,
0000
0000
0000
0000
,
2002
3003
1100
1100
1100
1100
1100
1100
,
1100
1100
1100
1100
1100
1100
1100
1100
,
1001
0000
0000
0000
,
1010
1100
0000
0000
0000
0000
0000
0000
,
1100
0000
0100
0000
1000
0001
1000
0000
0010
0000
0100
0000
0001
0010
1000
0000
,
0100
0000
1000
0000
0001
0100
0010
0000
1000
0000
0010
0000
0001
1000
0001
0000
,
0110
0000
0001
0000
1000
0001
0010
0000
0100
0000
1000
0000
0001
0100
1000
0000
,
0010
1000
0010
1000
0010
1000
0010
1000
0100
1000
0100
1000
0100
1000
0100
1000
,
0110
0000
0100
0000
0001
0100
0010
0000
1000
0000
0001
0000
0100
1000
0100
0000
,
0001
0000
1000
0000
0010
0001
1000
0000
0010
0000
1000
0000
0100
0010
1000
0000
,
0101
1000
0100
1000
0000
0000
0100
1000
0100
1000
0000
0000
0100
1000
0000
0000
,
0010
0100
0010
0100
0010
0000
0100
0010
0100
0010
0100
1000
0100
0010
0001
0010
,
2200
0000
0000
0000
,
0000
0000
0000
0000
0000
0000
0000
3300
,
2002
0000
0000
0000
,
0000
0000
0000
0000
0000
0000
3000
0000
0010
1003
0010
1000
0010
1000
0010
1000
,
0020
0000
1030
0001
1000
0001
0020
1030
0001
0100
0001
1000
0010
1000
0001
0010
,
2000
3100
0001
0100
0010
1000
0200
1300
0001
0100
0010
1000
0001
0010
0100
1000
,
0110
0110
0110
0101
0000
0101
0000
0101
,
0000
1001
0000
0110
0101
0101
0022
0033
,
2020
0000
0000
0000
,
0000
0000
0000
0000
0000
3030
0010
0010
,
0220
0000
0000
0000
0000
0000
0000
0000
0000
0000
0000
0000
0000
0000
0000
0330
,
2200
0000
0000
0000
0000
0000
3300
0000
0100
0000
0100
0000
0001
0010
0100
0000
,
2020
0000
0000
0000
,
0000
0000
0000
0000
0000
0000
0000
3030
,
0001
0010
0001
0010
0001
0000
0000
0000
0001
0010
0001
0010
0001
0000
0100
0000
,
1000
0000
0200
0000
0000
0300
1000
0000
0001
0010
0100
1000
0100
0010
0001
0010
,
2200
0000
0000
0000
0000
0000
0000
0000
0000
0000
0000
0000
0000
0000
0000
3300
,
0220
0000
0000
0000
0000
0000
0000
0000
0000
0000
0000
0000
0000
0000
0000
0330
,
2020
0000
0000
0000
0000
0000
0000
0000
0000
0000
0000
0000
0000
0000
0000
3030
,
0010
0100
0010
0100
0010
0100
0010
0100
0010
0100
0010
0100
0010
0100
0010
0100
,
1000
0100
1000
0100
0001
0010
0200
1300
0001
0010
0001
1000
0100
1000
0001
0010
,
0200
0310
0001
1000
0010
1000
0002
0103
0001
1000
0100
0001
0010
1000
0100
0001
,
1010
1010
0000
0000
,
0000
0000
0000
0000
,
0010
0020
0000
1030
0010
0100
1000
0001
,
0010
0000
0000
0100
0000
0000
1000
0000
0200
0000
0000
0000
0000
0000
0000
0000
,
1300
0020
0000
0130
2000
0000
3010
0100
,
1000
0200
0302
0000
,
0013
0000
0000
0020
0000
0000
0000
0000
0000
0130
0000
0000
0010
0100
1000
0100
0010
0100
1000
0000
0000
0100
0000
0000
,
0010
0000
0000
0000
0000
0000
0000
0000
0000
0100
0000
0000
0000
0000
0000
0000
0000
0000
1000
0000
0000
0000
0000
0000
0100
0000
0010
0000
0100
0000
1000
0000
0100
0000
0010
0000
0100
0000
0000
0000
0000
0000
0000
0000
0000
0000
0000
0000
,
0100
0000
0010
0001
0000
0010
0000
0001
,
0100
1000
0100
1000
0010
0100
0001
0010
0001
0010
0100
1000
0100
0010
0001
1000
,
0010
0000
0020
0000
0000
0030
0010
0000
1000
1000
1000
1000
0100
0100
0100
0100
,
0010
0000
0000
1000
0000
0000
0010
0000
0200
0000
0000
0000
0000
0000
0000
0300
,
0010
0000
0020
0000
0000
0030
0010
0000
0001
0000
0000
0010
0000
0000
0100
0000
,
0002
0000
0000
0000
0000
0003
0002
0000
0000
0000
0000
0003
0002
0000
0000
0003
0002
0000
0000
0000
0000
0000
0000
0000
0000
0000
0000
0000
0003
0000
0000
0000
,
0100
0000
0100
0000
0000
0000
1000
0000
0010
0100
1000
0010
0100
1000
0100
0010
,
0001
0000
0000
0010
0000
0000
0100
0000
0020
0000
0000
0000
0000
0000
0030
0000
,
0010
0000
0020
0000
0000
0000
0130
0000
1000
0000
0000
0100
0000
0000
1000
0000
,
0010
0100
2000
0000
0000
0000
0000
0000
0000
0000
3000
0000
0100
0000
0100
0000
,
0001
0100
0100
0100
0001
0100
0100
0100
,
1010
0000
1100
0000
1010
0000
1100
0000
1010
0000
1100
0000
,
0012
0000
0000
0000
0000
0000
0000
0003
,
1001
1001
1002
0000
0000
0000
0000
0003
,
1020
0000
1030
0000
1000
0100
1000
0000
0001
0000
0001
0000
0010
1000
0010
0000
,
0100
0000
0100
0000
0001
0100
0001
0000
1000
0000
1000
0000
0001
0010
0001
0000
,
0010
0000
0010
0000
0001
1000
0001
0000
0100
0000
0100
0000
1000
0010
1000
0000
,
0010
0100
0010
0100
0010
0100
0010
0100
0010
0100
1000
0000
1000
0000
1000
0000
,
1002
0000
0103
0000
0100
1000
0100
0000
0001
0000
0001
0000
0010
1000
0010
0000
,
0001
0000
0001
0000
1000
0001
1000
0000
0100
0000
0100
0000
0010
1000
0010
0000
,
0001
0100
0001
0100
0001
0100
0010
0100
1000
0100
1000
0100
1000
0100
1000
0100
,
1010
0000
0000
0000
1010
2020
0000
3030
,
1020
0000
0031
1000
0001
1000
0001
0010
0100
1000
0001
0100
0001
1000
0010
1000
,
0020
0031
0100
1000
0010
1000
0200
0310
0001
1000
0001
1000
0200
0000
0320
0000
,
0032
0000
1003
0100
1000
0100
0010
0001
1000
0010
1000
0001
0010
0100
1000
0001
,
0100
0001
0010
0000
1000
0100
0010
0001
1000
0000
0010
0001
0010
0100
1000
0000
,
0001
0000
0100
1000
0100
1000
0100
1000
0100
0000
0100
1000
0100
1000
0100
1000
,
0100
0000
0100
1000
0100
1000
0100
1000
0100
0000
0100
1000
0100
1000
0100
1000
,
0100
0100
0100
0100
1000
0000
0010
0100
,
0000
1000
0010
0100
0010
0100
0010
0100
,
0011
0011
0011
0011
,
1100
1100
1100
1100
,
0110
0110
0110
0110
,
1000
0200
0000
0310
1000
0010
0100
1000
,
0101
0101
0101
0101
,
1010
1010
1010
1010
,
0200
0300
0100
0200
0300
0100
0200
0300
,
2002
0000
0000
0000
3003
0000
1100
0000
0000
1100
0000
0000
1100
0000
0000
1100
0000
0000
1100
0000
0000
1100
0000
0000
,
2020
0000
0000
0000
,
0000
0000
0000
0000
0000
3030
0100
0100
,
2200
0000
0000
3300
,
0100
0000
0100
0000
0100
0020
0000
0030
,
2020
0000
0000
3030
,
0202
0000
0000
0303
,
0010
0000
0010
0001
0000
0001
0010
0000
,
0001
0000
0000
0000
0100
0000
0000
0000
0100
0000
0010
0000
0002
0000
0000
0003
,
2200
0000
0000
3300
,
0202
0000
0000
0000
0000
0303
0100
0100
,
0220
0000
0000
0000
0000
0000
0000
0330
,
1000
0010
0100
0000
0100
0010
0000
0010
,
1001
0000
0000
0000
,
0000
0000
0000
0000
,
2002
3003
1100
1100
1100
1100
1100
1100
,
1100
1100
1100
1100
1100
1100
1100
1100
,
1020
0000
0000
0000
,
1032
0000
0000
0000
,
1103
0000
0010
0000
0001
1000
0001
0000
0100
0000
0010
0000
1000
0100
0001
0000
,
0010
0000
0001
0000
1000
0010
0100
0000
0001
0000
0100
0000
1000
0001
1000
0000
,
0110
0000
1000
0000
0001
1000
0100
0000
0010
0000
1000
0000
0001
0100
1000
0000
,
0010
0100
0010
0100
0010
0100
0010
0100
,
1010
0000
0100
0000
0001
0100
0010
0000
1000
0000
0001
0000
0100
1000
0100
0000
,
0001
0000
1000
0000
0010
0001
1000
0000
0010
0000
1000
0000
0100
0010
1000
0000
,
0101
1000
0100
1000
0000
0000
0100
1000
0100
1000
0000
0000
0100
1000
0000
0000
,
0010
0100
0010
0100
0010
0000
0100
0010
0100
0010
0100
1000
0100
0010
0001
0010
,
2200
0000
0000
0000
,
0000
0000
0000
0000
0000
0000
0000
3300
,
2002
0000
0000
0000
,
0000
0000
0000
0000
0000
0000
3000
0000
0010
1003
0010
1000
0010
1000
0010
1000
,
0020
0000
1030
0001
1000
0001
0020
1030
0001
0100
0001
1000
0010
1000
0001
0010
,
2000
3100
0001
0100
0010
1000
0200
1300
0001
0100
0010
1000
0001
0010
0100
1000
,
0110
0110
0110
0101
0000
0101
0000
0101
,
0000
1001
0000
0110
0101
0101
0022
0033
,
2020
0000
0000
0000
,
0000
0000
0000
0000
0000
3030
0010
0010
,
0220
0000
0000
0000
0000
0000
0000
0000
0000
0000
0000
0000
0000
0000
0000
0330
,
2200
0000
0000
0000
0000
0000
3300
0000
0100
0000
0100
0000
0001
0010
0100
0000
,
2020
0000
0000
0000
,
0000
0000
0000
0000
0000
0000
0000
3030
,
0001
0010
0001
0010
0001
0010
0001
0010
0001
0010
0001
0010
0001
0010
0001
0010
,
1000
0000
0200
0000
0000
0300
1000
0000
0001
0010
0100
1000
0100
0010
0001
0010
,
2200
0000
0000
0000
0000
0000
0000
0000
0000
0000
0000
0000
0000
0000
0000
3300
,
0220
0000
0000
0000
0000
0000
0000
0000
0000
0000
0000
0000
0000
0000
0000
0330
,
2020
0000
0000
0000
0000
0000
0000
0000
0000
0000
0000
0000
0000
0000
0000
3030
,
0010
0100
0010
0100
0010
0100
0010
0100
0010
0100
0010
0100
0010
0100
0010
0100
,
1000
0100
1000
0100
0001
0010
0200
1300
0001
0010
0001
1000
0100
1000
0001
0010
,
0200
0310
0001
1000
0010
1000
0002
0103
0001
1000
0100
0001
0010
1000
0100
0001
,
1010
1010
0000
0000
,
0000
0000
0000
0000
,
0100
1000
0100
1000
0100
1000
0100
1000
0100
1000
0100
1000
0100
1000
0100
1000
,
0001
1000
0100
1000
0100
1000
0001
1000
0100
1000
0100
1000
0001
1000
0100
0010
,
1001
0010
0100
1000
0001
0010
0100
1000
0010
0100
1000
0010
0100
1000
0010
0100
,
2000
0000
0000
0000
,
3200
0000
0000
0000
0000
0000
0320
0032
,
0203
2300
0000
0000
,
3200
0000
0000
0000
,
0320
0000
0032
0023
0000
0230
0000
0000
,
2300
0000
3200
0000
0000
0000
0320
0032
,
0023
0000
2030
3200
0000
0000
0000
0000
,
2300
0000
0000
3020
0230
0000
0000
0000
,
0320
0000
0000
0000
0000
0000
0000
0030
,
1100
1100
0000
1100
1020
0000
0000
0000
0000
0000
0000
0000
0000
0000
0000
0000
,
0002
0000
0000
0003
2000
0000
0000
3030
,
1100
1100
0000
1100
2020
0000
0000
0000
0000
0000
0000
0000
0000
0000
0000
0000
,
0000
0000
0000
0000
0000
0000
0000
0000
0000
0000
0000
0000
0000
0000
0000
3030
,
1100
1100
0000
1100
2200
0000
0000
0000
0000
0000
0000
0000
0000
0000
0000
0000
,
0000
0000
0000
0000
0000
0000
0000
3300
,
1100
1100
0000
1100
2020
0000
0000
0000
0000
0000
0000
0000
0000
0000
0000
0000
,
0000
0000
0000
0000
0000
0000
0000
3030
,
1001
1001
1001
1001
1001
1001
1001
1001
,
1001
1001
1001
1001
1001
1001
1001
1001
,
0100
2000
3000
1000
0200
0300
0100
2000
,
3000
1000
0100
0010
0100
1000
1020
0030
,
1000
1000
0100
0010
0001
0010
2100
0001
,
0001
0010
0010
0100
0100
3100
1020
0030
,
0100
1000
0100
1000
0200
0300
0100
2000
,
3000
0000
0100
0000
0010
0000
0001
0000
0100
1000
0100
0010
0002
0000
0000
0000
,
0103
0100
0100
0010
0100
0100
0010
0100
,
0010
0100
0100
0010
0100
0100
0010
0100
,
0010
0010
0010
0010
0010
0010
1000
0010
0010
0010
0010
0010
1000
0010
0010
0010
,
1001
0000
1010
0000
1100
0000
1001
0000
0000
1000
0100
0010
,
0002
0000
0000
0000
0000
0000
0000
0000
0000
0000
0000
0000
0000
0000
0000
0003
,
0010
0100
1000
0010
0100
1000
0010
0100
1000
0010
0100
1000
0010
0100
1000
0010
0100
1000
0010
0100
1000
0001
0010
0100
,
0001
0010
0100
0001
0010
0100
0001
0010
0100
0001
0010
0100
0001
0010
0100
0001
0010
0100
0001
0010
0100
0001
0010
0100
,
0001
0001
1000
1000
0010
0010
0100
0100
1000
1000
0100
0100
0010
0010
1000
1000
,
0001
0000
0001
0000
0100
0000
0100
0000
0010
0000
0010
0000
0100
0000
0100
0000
0002
0000
0000
0003
0002
0000
0000
0003
0002
0000
0000
0003
0002
0000
0000
0000
,
0013
0100
1000
0100
0010
0001
0010
0100
0010
0001
0010
0100
1000
0100
0010
0100
,
1000
0100
0010
0001
0010
1000
0010
0001
0100
1000
0100
0001
0010
0100
1000
0100
,
0010
0000
0000
0001
0000
0000
0010
0000
0000
0100
0000
0000
1000
0000
0000
0100
0000
0000
0010
0000
0000
0100
0000
0000
1000
0000
0100
0000
0010
0000
0001
0000
0010
0000
0100
0000
1000
0000
0000
0100
0000
0000
0010
0000
0000
1000
0000
0000
,
0001
0010
0001
0010
0100
0010
0100
0010
0100
1000
0100
1000
0100
0000
1000
0000
,
0200
0000
0000
0000
0000
0000
0000
0000
0000
0000
0000
0000
2300
0000
0000
0000
0000
0000
0000
0000
0000
0000
0000
3000
2000
0000
0000
0000
0000
0000
0000
0000
,
3100
0010
0100
0010
0001
0010
0100
0010
,
0200
0000
0000
0000
0000
0000
0000
0000
0000
0000
0000
0000
2300
0000
0000
0000
0000
0000
0000
0000
0000
0000
0000
0000
3200
0000
0000
0000
0000
0000
0000
0300
,
0100
0000
0000
0000
0010
0000
0000
0000
0100
0000
0000
0000
2000
0000
0000
0000
0000
0000
0000
0000
3002
0000
0000
0003
0002
0000
0000
0003
0002
0000
0000
0000
,
0013
0100
0010
0100
0010
0100
0010
0100
0001
0010
0100
1000
0010
0100
0010
0100
,
0001
0010
0100
1000
0010
0100
0010
0100
0001
0010
0100
1000
0010
0100
0010
0100
,
0001
0010
0001
0010
0100
0010
0100
0010
0001
0010
0001
0010
0100
0010
0100
0010
,
0100
1000
0100
1000
0100
0010
0100
0010
0100
1000
0100
1000
0100
0010
0001
0010
,
1000
0000
1000
0000
1000
0000
0100
0000
0010
0000
0000
0100
0000
0000
0010
0000
,
0002
0000
0000
0000
0000
0000
0000
0000
0000
0000
0000
0000
0000
0000
0000
0003
0000
0000
1000
0000
0000
0000
0000
0000
0100
0000
0000
0000
0000
0000
0001
0000
0010
0000
0100
0000
1000
0000
0000
0000
0000
0000
0010
0000
0000
0000
0000
0000
,
0002
0000
0003
1000
0100
0010
0100
0010
,
2000
3100
0010
0001
,
0200
0000
0000
0000
0000
0000
0000
0300
0200
0000
0000
0000
0000
0000
0000
0300
0200
0000
0000
0000
0000
0000
0000
0000
1300
0000
0000
0000
0100
0000
0000
0000
,
0001
0000
0000
0000
0010
0000
0000
0000
0001
0000
0000
0000
0100
0000
0000
0000
1000
0000
0000
0000
0200
0000
0000
0000
0000
0000
0000
0300
1000
0000
0000
0000
,
0001
0010
0100
1000
0100
0010
0001
0010
0100
0010
0001
0010
0100
1000
0100
0010
0100
1000
0100
0010
0001
0010
0100
1000
,
0002
0000
0000
0000
0000
0000
0000
0000
0000
0000
0000
0000
0000
0000
0000
0003
,
1000
0100
0001
0100
1000
0100
0001
0100
1000
0100
0001
0100
1000
0100
0001
0010
,
0100
1000
0100
0010
0100
1000
0100
0010
0100
1000
0100
0010
0100
1000
0100
0010
,
0100
0100
0100
1000
0000
0100
0000
0010
,
0000
0100
0000
2000
0000
0000
0000
0000
,
3001
0000
0010
0000
0100
0000
1000
0000
0000
0100
0000
0000
1000
0000
0000
0100
0000
0000
0010
0000
0000
0001
0000
0000
0010
0000
0000
0100
0000
0000
0010
0000
0000
0100
0000
0000
1000
0000
0000
0100
0000
0000
0010
0000
0000
0001
0000
0000
,
0020
0030
0020
0030
0020
0030
0020
0030
0001
0010
0100
0010
0001
0010
0100
0010
,
0001
0100
0001
0100
0001
0010
0100
1000
0010
1000
0010
0100
1000
0100
0010
0100
,
1000
0100
0010
0001
0010
0100
1000
0100
0020
0000
0000
0000
0000
0000
0000
0030
,
0100
0100
0100
0010
0000
0100
0000
0010
,
0000
1000
0100
0010
0001
0010
0100
0001
,
0100
0000
0000
0000
0000
0000
0010
0000
0000
0100
0000
0000
1000
0000
0000
0000
0000
0000
0001
0000
0010
0000
0100
0000
1000
0000
0000
0000
0000
0000
0100
0000
0000
0000
0000
0000
1000
0000
0000
0000
0000
0000
0100
0000
0000
0000
0000
0000
,
1000
0100
0010
0100
0000
0020
0000
0000
,
0031
0010
0100
1000
0010
1000
0010
0100
0010
0001
0010
0100
1000
0100
0010
1000
,
0100
0000
0100
0000
0020
0000
0000
0030
0100
0000
0100
0000
2000
0000
0000
0000
,
3001
0010
0100
1000
0001
0010
0100
1000
0001
0010
0100
1000
0001
0010
0100
1000
0001
0010
0100
1000
0001
0010
0100
1000
,
0001
0010
0100
1000
0001
0010
0100
1000
0001
0010
0100
1000
0001
0100
0001
0100
0001
0100
0001
0010
0001
0010
0001
0010
,
1200
0300
0010
0010
0100
0000
0010
0000
,
0001
0000
0100
2000
0000
0000
0000
3000
,
1000
0100
0010
0001
0010
0100
1000
0000
0000
0010
0000
0000
1000
0000
0000
0010
0000
0000
1000
0000
0000
0100
0000
0000
,
0200
0000
0320
0000
,
0000
0000
1030
1000
0100
0000
0010
0000
,
0020
0000
0000
0230
0000
0000
0320
0000
,
0031
0010
0000
0001
0010
0000
0001
0010
0000
0001
0010
0000
0100
1000
0000
0100
1000
0000
0100
1000
0000
0100
1000
0000
,
0001
0000
0001
0000
1000
0000
0100
0000
0020
0000
0000
0000
0000
0000
0000
0030
,
0001
0010
0100
1000
0100
0010
0001
0010
0100
1000
0100
1000
0100
1000
0100
0010
0001
0010
0100
0010
0100
1000
0100
0010
,
0001
0010
0001
0010
0001
0010
0001
0010
0001
0010
0100
1000
0100
0010
0100
0010
0001
0010
0100
1000
0100
1000
0100
1000
,
0010
0000
0000
0001
0000
0000
0001
0000
0010
0000
0000
0100
0000
0000
1000
0000
,
0001
0010
0002
0000
,
0013
0000
0000
0100
0000
0000
2000
0000
0000
3000
1000
0000
0100
0000
0010
0000
,
0002
0000
0000
0000
0000
0000
0000
0000
0013
0100
0000
0000
2000
0000
0000
0000
0000
0000
0000
0000
3100
0000
0000
0000
0010
0000
0000
0000
0001
0000
0000
0000
,
1000
0100
1000
0100
1000
0100
0010
0001
0010
0001
0010
0100
0010
0001
0010
0001
0010
0100
0010
0001
0010
0001
0010
0100
,
0010
0100
1000
0100
0010
0001
0010
0100
1000
0100
1000
0100
0010
0100
1000
0100
0010
0100
1000
0100
1000
0100
0010
0100
,
1000
0000
1000
0100
1000
0100
1000
0100
1000
0000
1000
0100
1000
0100
1000
0100
,
0010
0100
0010
0100
0010
0100
0002
0203
,
0301
1000
0001
1000
0001
1000
0001
1000
0001
1000
0001
1000
0001
1000
0001
1000
,
0010
0000
0200
0300
0010
0000
0200
0300
0010
0000
0100
0000
1000
0000
0100
0000
,
2200
0000
0000
0000
0000
0000
0000
3300
,
0220
0000
0000
0000
0000
0000
0000
0330
,
0010
0200
0310
0020
0130
2000
3100
2000
,
3010
0002
0103
0001
1000
1000
1000
1000
,
0002
0103
0001
1000
0010
1000
0001
0010
0001
1000
0010
1000
0001
0010
0100
1000
,
0002
1003
0010
1000
0001
0100
0002
0013
0001
1000
0010
1000
0100
0010
0001
1000
,
0200
0310
0100
1000
0001
0100
0001
0010
0100
0010
0001
1000
0100
1000
0001
0100
,
0002
1003
0010
1000
0002
1003
0010
1000
0002
1003
0010
1000
0002
0000
0000
0003
,
2000
0000
0000
0000
,
3200
0000
0000
0000
0000
0000
0000
0300
,
0010
0100
1000
0100
1000
0100
1000
0100
0010
0001
0010
0100
1000
0100
1000
0100
,
0010
0001
0010
0100
1000
0001
0010
0100
1000
0001
0010
0100
1000
0001
0010
0100
,
1010
0000
0000
0000
,
0101
0000
0000
0000
,
1001
0010
0001
0010
0001
0010
0001
0010
0001
0010
0001
0010
0001
0010
0001
0010
,
1000
0100
0010
0001
0010
0001
0010
0001
1000
0100
0010
0001
0010
0001
0010
0001
,
1100
0000
0010
0000
0001
1000
0001
0000
0100
0000
0010
0000
1000
0100
0001
0000
,
0010
0000
0001
0000
1000
0010
0100
0000
0001
0000
0100
0000
1000
0001
1000
0000
,
0110
0000
1000
0000
0001
1000
0100
0000
0010
0000
1000
0000
0001
0100
1000
0000
,
0010
0100
0010
0100
0010
0100
0010
0100
,
1010
0000
0100
0000
0001
0100
0010
0000
1000
0000
0001
0000
0100
1000
0100
0000
,
0001
0000
1000
0000
0010
0001
1000
0000
0010
0000
1000
0000
0100
0010
1000
0000
,
0010
0100
0010
0100
0010
0100
0010
0100
0010
0100
0010
0100
0010
0100
0010
0100
,
1000
0100
1000
0100
1000
0000
0100
1000
0100
1000
0100
1000
0100
0010
0001
0010
,
2200
0000
0000
0000
,
0000
0000
0000
0000
0000
0000
0000
3300
,
2002
0000
0000
0000
,
0000
0000
0000
0000
0000
0000
3000
0000
0010
1003
0010
1000
0010
1000
0010
1000
,
0020
0000
1030
0001
1000
0001
0020
1030
0001
0100
0001
1000
0010
1000
0001
0010
,
2000
3100
0001
0100
0010
1000
0200
1300
0001
0100
0010
1000
0001
0010
0100
1000
,
0110
0110
0110
0101
0000
0101
0000
0101
,
0000
1001
0000
0110
0101
0101
0022
0033
,
2020
0000
0000
0000
,
0000
0000
0000
0000
0000
3030
0010
0010
,
0220
0000
0000
0000
0000
0000
0000
0000
0000
0000
0000
0000
0000
0000
0000
0330
,
2200
0000
0000
0000
0000
0000
3300
0000
0100
0000
0100
0000
0001
0010
0100
0000
,
2020
0000
0000
0000
,
0000
0000
0000
0000
0000
0000
0000
3030
,
0001
0010
0001
0010
0001
0010
0100
1000
0001
0010
0001
0010
0001
0010
0100
1000
,
0100
1000
0200
0000
0000
0300
0100
0010
0001
0010
0100
1000
0100
0010
0001
0010
,
2200
0000
0000
0000
0000
0000
0000
0000
0000
0000
0000
0000
0000
0000
0000
3300
,
0220
0000
0000
0000
0000
0000
0000
0000
0000
0000
0000
0000
0000
0000
0000
0330
,
2020
0000
0000
0000
0000
0000
0000
0000
0000
0000
0000
0000
0000
0000
0000
3030
,
0010
0100
0010
0100
0010
0100
0010
0100
0010
0100
0010
0100
0010
0100
0010
0100
,
2000
0000
0000
0000
3100
0000
2000
0000
0000
3000
0000
0000
0010
0000
0100
0000
,
2100
3010
0001
1000
0010
1000
0002
0103
0001
1000
0100
0001
0010
1000
0100
0001
,
1010
1010
0000
0000
,
0000
0000
0000
0000
,
0001
0010
0100
1000
0001
0010
0100
1000
0001
0010
0100
1000
0001
0010
0100
1000
0001
0010
0100
1000
0001
0010
0100
1000
,
0001
0010
0100
1000
0100
0010
0001
0010
0100
1000
0100
0010
0001
0010
0100
1000
0100
0010
0001
0010
0100
1000
0100
1000
,
0020
0000
0000
0000
,
0032
0000
0000
0000
0000
0000
0000
0000
0000
0000
0000
0000
0000
0000
0000
0000
0000
0000
0003
0000
0002
0003
0002
0003
0002
0003
0002
0003
0002
0003
0002
0003
,
1100
1010
1100
1001
0000
1100
0000
1100
,
0000
0110
0000
1100
0000
1100
1001
1100
,
0020
0030
0000
0000
0000
0000
0200
0300
0000
0000
0000
0000
2020
0000
0000
0000
,
0000
0000
0000
0000
0000
0000
0000
3030
,
0010
0010
0010
0010
0010
0010
1100
1100
,
2020
0000
0000
0000
0000
3030
0000
0000
;
